• Assassins Creed [2016] 3D H-SBS 1080p [Ing-Lat][Aventuras]
  • Creado 1499892998
  • Seguidores: 0
  • Favoritos: 0
  • Puntos: 0
  • Medallas: 3
  • Ver perfil de campitos
  • Avanzado

  • Medallas



    Titulo original: Assassins Creed
    Ano: 2016
    Duracion: 115 min.
    Pais: Estados Unidos
    Director: Justin Kurzel
    Reparto: Michael Fassbender, Marion Cotillard, Jeremy Irons, Charlotte Rampling, Brendan Gleeson, Michael Kenneth Williams, Ariane Labed, Brian Gleeson, Carlos Bardem, Hovik Keuchkerian, Javier Gutierrez, Matias Varela, Denis Menochet, Mohammed Ali, Dino Fazzani, Gabriel Andreu, Megan Affonso
    Productora: 20th Century Fox / Regency Enterprises / DMC Film / Ubisoft
    Genero: Aventuras. Accion. Ciencia ficcion | Viajes en el tiempo. Siglo XV. Videojuego
    Sinopsis: Gracias a una tecnologia revolucionaria que permite el acceso a los recuerdos geneticos, Callum Lynch (Michael Fassbender) revive las aventuras de Aguilar, un antepasado suyo que vivio en la Espana del siglo XV. Asi descubre que es descendiente de una misteriosa organizacion secreta, los Assassins, y que posee las habilidades y los conocimientos necesarios para enfrentarse a la poderosa y temible organizacion de los Templarios en la epoca actual. Adaptacion libre del videojuego homonimo.
    http://www.imdb.com/title/tt2094766/?ref_=nv_sr_1
    Trailer
    https://youtu.be/Y_mOn9IxYtk


    Cita:


    General
    Format : Matroska
    Format version : Version 4 / Version 2
    File size : 14.5 GiB
    Duration : 1 h 55 min
    Overall bit rate : 17.9 Mb/s
    Movie name : Assassins Creed (2016) 3D H-SBS 1080p
    Encoded date : UTC 2017-03-18 23:13:05
    Writing application : mkvmerge v9.9.0 (Pick Up) 64bit
    Writing library : libebml v1.3.4 + libmatroska v1.4.5
    Video
    ID : 1
    Format : AVC
    Format/Info : Advanced Video Codec
    Format profile : High@L4.1
    Format settings, CABAC : Yes
    Format settings, ReFrames : 2 frames
    Codec ID : V_MPEG4/ISO/AVC
    Duration : 1 h 55 min
    Bit rate : 15.5 Mb/s
    Width : 1 920 pixels
    Height : 1 080 pixels
    Display aspect ratio : 16:9
    Frame rate mode : Constant
    Frame rate : 23.976 (24000/1001) FPS
    Color space : YUV
    Chroma subsampling : 4:2:0
    Bit depth : 8 bits
    Scan type : Progressive
    Bits/(Pixel*Frame) : 0.312
    Stream size : 12.5 GiB (87%)
    Title : Assassins Creed (2016) 3D H-SBS 1080p
    Language : English
    Default : Yes
    Forced : No
    Audio #1
    ID : 2
    Format : AC-3
    Format/Info : Audio Coding 3
    Mode extension : CM (complete main)
    Format settings, Endianness : Big
    Codec ID : A_AC3
    Duration : 1 h 55 min
    Bit rate mode : Constant
    Bit rate : 448 kb/s
    Channel(s) : 6 channels
    Channel positions : Front: L C R, Side: L R, LFE
    Sampling rate : 48.0 kHz
    Frame rate : 31.250 FPS (1536 spf)
    Bit depth : 16 bits
    Compression mode : Lossy
    Stream size : 370 MiB (2%)
    Title : AC3 5.1 Bluray
    Language : Spanish
    Default : Yes
    Forced : No
    Audio #2
    ID : 3
    Format : DTS
    Format/Info : Digital Theater Systems
    Mode : 16
    Format settings, Endianness : Big
    Codec ID : A_DTS
    Duration : 1 h 55 min
    Bit rate mode : Constant
    Bit rate : 1 509 kb/s
    Channel(s) : 6 channels
    Channel positions : Front: L C R, Side: L R, LFE
    Sampling rate : 48.0 kHz
    Frame rate : 93.750 FPS (512 spf)
    Bit depth : 24 bits
    Compression mode : Lossy
    Stream size : 1.22 GiB (8%)
    Title : DTS
    Language : English
    Default : No
    Forced : No
    Audio #3
    ID : 4
    Format : AC-3
    Format/Info : Audio Coding 3
    Mode extension : CM (complete main)
    Format settings, Endianness : Big
    Codec ID : A_AC3
    Duration : 1 h 55 min
    Bit rate mode : Constant
    Bit rate : 448 kb/s
    Channel(s) : 6 channels
    Channel positions : Front: L C R, Side: L R, LFE
    Sampling rate : 48.0 kHz
    Frame rate : 31.250 FPS (1536 spf)
    Bit depth : 16 bits
    Compression mode : Lossy
    Stream size : 370 MiB (2%)
    Title : AC3 5.1
    Language : English
    Default : No
    Forced : No
    Text #1
    ID : 5
    Format : UTF-8
    Codec ID : S_TEXT/UTF8
    Codec ID/Info : UTF-8 Plain Text
    Duration : 1 h 30 min
    Bit rate : 0 b/s
    Count of elements : 11
    Stream size : 484 Bytes (0%)
    Title : Subt_Forz
    Language : Spanish
    Default : Yes
    Forced : No
    Text #2
    ID : 6
    Format : UTF-8
    Codec ID : S_TEXT/UTF8
    Codec ID/Info : UTF-8 Plain Text
    Duration : 1 h 38 min
    Bit rate : 21 b/s
    Count of elements : 566
    Stream size : 15.8 KiB (0%)
    Title : Subt_Complet
    Language : Spanish
    Default : No
    Forced : No










    Uploadgig, Nitroflare

    **Todos los Enlaces Estan en Lupaste:

    http://lupaste.com/?v=20796
  • Otros posts que te van a interesar:

    0 Comentarios

    Cargando comentarios espera un momento...
    No tienes permisos para comentar.

    Para poder comentar necesitas estar Registrado. O.. ya tienes usuario? Logueate!