• Saturday Night Fever [1977] FullHD 1080p [Ing-Lat]
  • Creado 1506549305
  • Seguidores: 0
  • Favoritos: 0
  • Puntos: 0
  • Medallas: 1
  • Ver perfil de campitos
  • Destacado

  • Medallas



    Título original: Saturday Night Fever
    Año: 1977
    Duración: 119 min.
    País: Estados Unidos
    Director: John Badham
    Reparto: John Travolta, Karen Lynn Gorney, Barry Miller, Joseph Cali, Paul Pape, Donna Pescow, Julie Bovasso, Bruce Ornstein, Val Bisoglio, Martin Shakar, Nina Hansen, Lisa Peluso
    Productora: Paramount Pictures
    Género: Drama. Musical | Baile. Amistad
    Sinopsis: En Nueva York, después de trabajar toda la semana en una tienda de pinturas de Brooklyn, Tony Manero (John Travolta) se prepara esmeradamente para disfrutar de la noche del sábado en la disco: se empapa en colonia Brut, se pone una camisa de flores ajustada, pantalones de tela de gabardina y zapatos de plataforma. En la discoteca de moda, Tony deslumbrará a todos con lo que mejor sabe hacer: bailar.
    Premios
    1977: Nominada al Oscar: Mejor actor (John Travolta)
    1978: 4 nominaciones al Globo de oro: Película musical, actor, bso, canción
    1979: Premios BAFTA: Nominada a mejor banda sonora y mejor música
    1977: National Board of Review: Mejor actor (John Travolta)
    1977: Círculo de críticos de Nueva York: 2 Nominaciones
    1977: Sindicato de Guionistas (WGA): Nominada a Mejor guión original drama
    http://www.imdb.com/title/tt0076666
    Trailer
    https://youtu.be/tyJDYTG5leQ


    Cita:


    General
    Format : Matroska
    Format version : Version 4 / Version 2
    File size : 7.57 GiB
    Duration : 2 h 2 min
    Overall bit rate : 8 863 kb/s
    Movie name : Saturday Night Fever (1977) [Director´s Cut] 1080p
    Encoded date : UTC 2017-06-03 22:44:13
    Writing application : mkvmerge v9.9.0 ('Pick Up') 64bit
    Writing library : libebml v1.3.4 + libmatroska v1.4.5
    Video
    ID : 1
    Format : AVC
    Format/Info : Advanced Video Codec
    Format profile : High@L4.1
    Format settings, CABAC : Yes
    Format settings, ReFrames : 4 frames
    Codec ID : V_MPEG4/ISO/AVC
    Duration : 2 h 2 min
    Bit rate : 8 000 kb/s
    Width : 1 920 pixels
    Height : 1 036 pixels
    Display aspect ratio : 1.85:1
    Frame rate mode : Constant
    Frame rate : 23.976 (24000/1001) FPS
    Color space : YUV
    Chroma subsampling : 4:2:0
    Bit depth : 8 bits
    Scan type : Progressive
    Bits/(Pixel*Frame) : 0.168
    Stream size : 6.83 GiB (90%)
    Title : Saturday Night Fever (1977) [Director´s Cut] 1080p
    Language : English
    Default : Yes
    Forced : No
    Color range : Limited
    Color primaries : BT.709
    Transfer characteristics : BT.709
    Matrix coefficients : BT.709
    Audio #1
    ID : 2
    Format : AC-3
    Format/Info : Audio Coding 3
    Mode extension : CM (complete main)
    Format settings, Endianness : Big
    Codec ID : A_AC3
    Duration : 2 h 2 min
    Bit rate mode : Constant
    Bit rate : 224 kb/s
    Channel(s) : 2 channels
    Channel positions : Front: L R
    Sampling rate : 48.0 kHz
    Frame rate : 31.250 FPS (1536 spf)
    Bit depth : 16 bits
    Compression mode : Lossy
    Stream size : 196 MiB (3%)
    Title : AC3 2.0 Bluray
    Language : Spanish
    Default : Yes
    Forced : No
    Audio #2
    ID : 3
    Format : AC-3
    Format/Info : Audio Coding 3
    Mode extension : CM (complete main)
    Format settings, Endianness : Big
    Codec ID : A_AC3
    Duration : 2 h 2 min
    Bit rate mode : Constant
    Bit rate : 640 kb/s
    Channel(s) : 6 channels
    Channel positions : Front: L C R, Side: L R, LFE
    Sampling rate : 48.0 kHz
    Frame rate : 31.250 FPS (1536 spf)
    Bit depth : 16 bits
    Compression mode : Lossy
    Stream size : 560 MiB (7%)
    Title : AC3 5.1
    Language : English
    Default : No
    Forced : No
    Text #1
    ID : 4
    Format : UTF-8
    Codec ID : S_TEXT/UTF8
    Codec ID/Info : UTF-8 Plain Text
    Duration : 1 h 27 min
    Bit rate : 1 b/s
    Count of elements : 34
    Stream size : 1.08 KiB (0%)
    Title : Subtit_Forz
    Language : Spanish
    Default : Yes
    Forced : No
    Text #2
    ID : 5
    Format : UTF-8
    Codec ID : S_TEXT/UTF8
    Codec ID/Info : UTF-8 Plain Text
    Duration : 1 h 58 min
    Bit rate : 60 b/s
    Count of elements : 1545
    Stream size : 52.6 KiB (0%)
    Title : Subtit_Compl
    Language : Spanish
    Default : No
    Forced : No







    http://lupaste.com/?v=24681
  • Otros posts que te van a interesar:

    0 Comentarios

    Cargando comentarios espera un momento...
    No tienes permisos para comentar.

    Para poder comentar necesitas estar Registrado. O.. ya tienes usuario? Logueate!