• Baywatch [2017] FullHD 1080p [Ing-Lat]
  • Creado 1507303274
  • Seguidores: 0
  • Favoritos: 0
  • Puntos: 0
  • Medallas: 0
  • Ver perfil de campitos
  • Destacado




  • Titulo original: Baywatch
    Ano: 2017
    Duracion: 116 Minutos
    Pais: Estados Unidos
    Director: Seth Gordon
    Reparto: Dwayne "The Rock" Johnson, Zac Efron, Alexandra Daddario, Priyanka Chopra, Kelly Rohrbach, Ilfenesh Hadera, Jon Bass, David Hasselhoff, Charlotte McKinney, Izabel Goulart, Belinda, Pamela Anderson, Yahya Abdul-Mateen II, Oscar Nunez, Hannibal Buress, Amin Joseph, Rob Huebel, Alexis Burns, Tamila Bilalova
    Productora: Paramount Pictures / Flynn Picture Company / Fremantle Productions
    Genero: Accion. Comedia
    Sinopsis: Adaptacion al cine de la serie "Los vigilantes de la playa". Narra la historia del esforzado socorrista Mitch Buchannon (Johnson) y su choque de caracter con un bravucon socorrista novato (Efron). Juntos, descubren una trama delictiva local que amenaza el futuro de la Bahia.
    http://www.imdb.com/title/tt1469304
    Trailer
    https://youtu.be/KjuRIAZogMM


    Cita:


    General
    Complete name : Baywatch (2017) 1080p
    Format : Matroska
    Format version : Version 4 / Version 2
    File size : 4.21 GiB
    Duration : 1 h 56 min
    Overall bit rate : 5 164 kb/s
    Encoded date : UTC 2017-08-15 07:15:56
    Writing application : mkvmerge v13.0.0 ('The Juggler') 64bit
    Writing library : libebml v1.3.4 + libmatroska v1.4.5
    Video
    ID : 1
    Format : AVC
    Format/Info : Advanced Video Codec
    Format profile : High@L4
    Format settings, CABAC : Yes
    Format settings, ReFrames : 5 frames
    Codec ID : V_MPEG4/ISO/AVC
    Duration : 1 h 56 min
    Bit rate : 4 523 kb/s
    Width : 1 920 pixels
    Height : 804 pixels
    Display aspect ratio : 2.40:1
    Frame rate mode : Constant
    Frame rate : 23.976 (24000/1001) FPS
    Color space : YUV
    Chroma subsampling : 4:2:0
    Bit depth : 8 bits
    Scan type : Progressive
    Bits/(Pixel*Frame) : 0.122
    Stream size : 3.69 GiB (88%)
    Title : Baywatch (2017) 1080p
    Language : English
    Default : Yes
    Forced : No
    Color range : Limited
    Color primaries : BT.709
    Transfer characteristics : BT.709
    Matrix coefficients : BT.709
    Audio #1
    ID : 2
    Format : AC-3
    Format/Info : Audio Coding 3
    Mode extension : CM (complete main)
    Format settings, Endianness : Big
    Codec ID : A_AC3
    Duration : 1 h 56 min
    Bit rate mode : Constant
    Bit rate : 256 kb/s
    Channel(s) : 2 channels
    Channel positions : Front: L R
    Sampling rate : 48.0 kHz
    Frame rate : 31.250 FPS (1536 spf)
    Bit depth : 16 bits
    Compression mode : Lossy
    Delay relative to video : -43 ms
    Stream size : 213 MiB (5%)
    Language : Spanish
    Default : Yes
    Forced : No
    Audio #2
    ID : 3
    Format : AC-3
    Format/Info : Audio Coding 3
    Mode extension : CM (complete main)
    Format settings, Endianness : Big
    Codec ID : A_AC3
    Duration : 1 h 56 min
    Bit rate mode : Constant
    Bit rate : 384 kb/s
    Channel(s) : 6 channels
    Channel positions : Front: L C R, Side: L R, LFE
    Sampling rate : 48.0 kHz
    Frame rate : 31.250 FPS (1536 spf)
    Bit depth : 16 bits
    Compression mode : Lossy
    Delay relative to video : -43 ms
    Stream size : 320 MiB (7%)
    Language : English
    Default : No
    Forced : No
    Text #1
    ID : 4
    Format : UTF-8
    Codec ID : S_TEXT/UTF8
    Codec ID/Info : UTF-8 Plain Text
    Duration : 28 min 33 s
    Bit rate : 0 b/s
    Count of elements : 6
    Stream size : 149 Bytes (0%)
    Title : Subt. Esp Forz
    Language : Spanish
    Default : Yes
    Forced : No
    Text #2
    ID : 5
    Format : UTF-8
    Codec ID : S_TEXT/UTF8
    Codec ID/Info : UTF-8 Plain Text
    Duration : 1 h 51 min
    Bit rate : 64 b/s
    Count of elements : 1636
    Stream size : 53.0 KiB (0%)
    Title : Subt. Esp Compl
    Language : Spanish
    Default : No
    Forced : No










    http://lupaste.com/?v=25105
  • Otros posts que te van a interesar:

    0 Comentarios

    Cargando comentarios espera un momento...
    No tienes permisos para comentar.

    Para poder comentar necesitas estar Registrado. O.. ya tienes usuario? Logueate!