• The Fines Hours [2016] 3D H-SBS 1080p [Ing-Lat]
  • Creado 1507781689
  • Seguidores: 0
  • Favoritos: 0
  • Puntos: 0
  • Medallas: 1
  • Ver perfil de campitos
  • Avanzado

  • Medallas



    Titulo original: The Finest Hours
    Ano: 2016
    Duracion: 117 min.
    Pais: Estados Unidos
    Director: Craig Gillespie
    Reparto: Chris Pine, Casey Affleck, Ben Foster, Eric Bana, Graham McTavish, Holliday Grainger, Kyle Gallner, Rachel Brosnahan, Michael Raymond-James, Josh Stewart, Abraham Benrubi, John Magaro
    Productora: Walt Disney Pictures / Whitaker Entertainment
    Genero: Aventuras. Accion. Drama | Basado en hechos reales. Aventuras marinas. Catastrofes. Anos 50. Supervivencia
    Sinopsis: En febrero de 1952, una de las peores tormentas que jamas haya sufrido la costa este de Nueva Inglaterra dana a un petrolero frente a la costa de Cabo Cod. En un pequeno bote salvavidas, enfrentandose al temporal y a las gelidas temperaturas, cuatro miembros de la Guardia Costera se disponen a rescatar a los 30 marineros atrapados a bordo del buque que se esta hundiendo.
    http://www.imdb.com/title/tt2025690
    Trailer
    https://youtu.be/8bFUVHZ86Ow


    Cita:


    General
    Format : Matroska
    Format version : Version 4 / Version 2
    File size : 14.8 GiB
    Duration : 1h 57mn
    Overall bit rate : 18.1 Mbps
    Movie name : The Finest Hours (2016) 3D H-SBS 1080p
    Encoded date : UTC 2016-07-05 18:14:27
    Writing application : mkvmerge v8.3.0 (Over the Horizon) 64bit
    Writing library : libebml v1.3.1 + libmatroska v1.4.2
    Video
    ID : 1
    Format : AVC
    Format/Info : Advanced Video Codec
    Format profile : High@L4.1
    Format settings, CABAC : Yes
    Format settings, ReFrames : 2 frames
    Codec ID : V_MPEG4/ISO/AVC
    Duration : 1h 57mn
    Bit rate : 15.5 Mbps
    Width : 1 920 pixels
    Height : 1 080 pixels
    Display aspect ratio : 16:9
    Frame rate mode : Constant
    Frame rate : 23.976 fps
    Color space : YUV
    Chroma subsampling : 4:2:0
    Bit depth : 8 bits
    Scan type : Progressive
    Bits/(Pixel*Frame) : 0.312
    Stream size : 12.2 GiB (83%)
    Title : The Finest Hours (2016) 3D H-SBS 1080p
    Language : English
    Default : Yes
    Forced : No
    Audio #1
    ID : 2
    Format : AC-3
    Format/Info : Audio Coding 3
    Mode extension : CM (complete main)
    Format settings, Endianness : Big
    Codec ID : A_AC3
    Duration : 1h 57mn
    Bit rate mode : Constant
    Bit rate : 640 Kbps
    Channel(s) : 6 channels
    Channel positions : Front: L C R, Side: L R, LFE
    Sampling rate : 48.0 KHz
    Bit depth : 16 bits
    Compression mode : Lossy
    Stream size : 537 MiB (4%)
    Title : AC3 5.1 Bluray
    Language : Spanish
    Default : Yes
    Forced : No
    Audio #2
    ID : 3
    Format : DTS
    Format/Info : Digital Theater Systems
    Mode : 16
    Format settings, Endianness : Big
    Codec ID : A_DTS
    Duration : 1h 57mn
    Bit rate mode : Constant
    Bit rate : 1 509 Kbps
    Channel(s) : 6 channels
    Channel positions : Front: L C R, Side: L R, LFE
    Sampling rate : 48.0 KHz
    Bit depth : 24 bits
    Compression mode : Lossy
    Stream size : 1.24 GiB (8%)
    Title : DTS
    Language : English
    Default : No
    Forced : No
    Audio #3
    ID : 4
    Format : AC-3
    Format/Info : Audio Coding 3
    Mode extension : CM (complete main)
    Format settings, Endianness : Big
    Codec ID : A_AC3
    Duration : 1h 57mn
    Bit rate mode : Constant
    Bit rate : 640 Kbps
    Channel(s) : 6 channels
    Channel positions : Front: L C R, Side: L R, LFE
    Sampling rate : 48.0 KHz
    Bit depth : 16 bits
    Compression mode : Lossy
    Stream size : 537 MiB (4%)
    Title : AC3 5.1
    Language : English
    Default : No
    Forced : No
    Text #1
    ID : 5
    Format : UTF-8
    Codec ID : S_TEXT/UTF8
    Codec ID/Info : UTF-8 Plain Text
    Title : Subt_For
    Language : Spanish
    Default : Yes
    Forced : No
    Text #2
    ID : 6
    Format : UTF-8
    Codec ID : S_TEXT/UTF8
    Codec ID/Info : UTF-8 Plain Text
    Title : Subt_Complet
    Language : Spanish
    Default : No
    Forced : No









    Buy Premium Account To Get High Speed Download
    http://lupaste.com/?v=22557
  • Otros posts que te van a interesar:

    0 Comentarios

    Cargando comentarios espera un momento...
    No tienes permisos para comentar.

    Para poder comentar necesitas estar Registrado. O.. ya tienes usuario? Logueate!