• The Lego Movie [2014] 3D H-SBS 1080p [Ing-Lat]
  • Creado 1507789688
  • Seguidores: 0
  • Favoritos: 0
  • Puntos: 0
  • Medallas: 0
  • Ver perfil de campitos
  • Destacado




  • TITULO ORIGINAL: The Lego Movie
    ANO: 2014
    DURACION: 100 min.
    PAIS: USA
    DIRECTOR: Philip Lord, Chris Miller, Chris McKay
    GUION: Philip Lord, Chris Miller (Historia: Kevin Hageman, Dan Hageman)
    REPARTO: Animation
    PRODUCTORA: Coproduccion Australia-EEUU; Animal Logic / The LEGO Group / LEGO / Lin Pictures / Warner Bros.
    GENERO: Animacion. Comedia. Aventuras | Stop Motion. Comic. DC Comics. 3-D
    SINOPSIS: Cuenta la historia de Emmet, una figurita LEGO absolutamente normal y fiel a las normas que es identificada por error como la persona mas extraordinaria y la clave para salvar al mundo. Se ve entonces inmerso en una busqueda epica para detener a un malvado tirano junto a un grupo de desconocidos, una aventura para la que Emmet no esta' preparado en absoluto.
    http://www.imdb.com/title/tt1490017/
    Trailer
    https://www.youtube.com/watch?v=37uUHKaScvk


    Cita:


    General
    Format : Matroska
    Format version : Version 3 / Version 2
    File size : 7.74 GiB
    Duration : 1h 40mn
    Overall bit rate : 11.0 Mbps
    Encoded date : UTC 2014-05-31 00:17:06
    Writing application : mkvmerge v5.7.0 ('The Whirlwind') built on Jul 8 2012 20:08:51
    Writing library : libebml v1.2.3 + libmatroska v1.3.0
    Video
    ID : 1
    Format : AVC
    Format/Info : Advanced Video Codec
    Format profile : High@L4.1
    MultiView_Count : 2
    MultiView_Layout : Side by Side (left eye first)
    Format settings, CABAC : Yes
    Format settings, ReFrames : 4 frames
    Muxing mode : Header stripping
    Codec ID : V_MPEG4/ISO/AVC
    Duration : 1h 40mn
    Bit rate : 8 201 Kbps
    Width : 1 920 pixels
    Height : 1 080 pixels
    Display aspect ratio : 16:9
    Frame rate mode : Constant
    Frame rate : 23.976 fps
    Color space : YUV
    Chroma subsampling : 4:2:0
    Bit depth : 8 bits
    Scan type : Progressive
    Bits/(Pixel*Frame) : 0.165
    Stream size : 5.76 GiB (74%)
    Writing library : x264 core 142 r2389 956c8d8
    Language : English
    Default : Yes
    Forced : No
    Audio #1
    ID : 2
    Format : AC-3
    Format/Info : Audio Coding 3
    Mode extension : CM (complete main)
    Format settings, Endianness : Big
    Muxing mode : Header stripping
    Codec ID : A_AC3
    Duration : 1h 40mn
    Bit rate mode : Constant
    Bit rate : 448 Kbps
    Channel(s) : 6 channels
    Channel positions : Front: L C R, Side: L R, LFE
    Sampling rate : 48.0 KHz
    Bit depth : 16 bits
    Compression mode : Lossy
    Stream size : 322 MiB (4%)
    Title : AC3 5.1
    Language : Spanish
    Default : Yes
    Forced : No
    Audio #2
    ID : 3
    Format : AC-3
    Format/Info : Audio Coding 3
    Mode extension : CM (complete main)
    Format settings, Endianness : Big
    Muxing mode : Header stripping
    Codec ID : A_AC3
    Duration : 1h 40mn
    Bit rate mode : Constant
    Bit rate : 640 Kbps
    Channel(s) : 6 channels
    Channel positions : Front: L C R, Side: L R, LFE
    Sampling rate : 48.0 KHz
    Bit depth : 16 bits
    Compression mode : Lossy
    Stream size : 460 MiB (6%)
    Title : AC3 5.1
    Language : English
    Default : No
    Forced : No
    Audio #3
    ID : 4
    Format : DTS
    Format/Info : Digital Theater Systems
    Mode : 16
    Format settings, Endianness : Big
    Muxing mode : Header stripping
    Codec ID : A_DTS
    Duration : 1h 40mn
    Bit rate mode : Constant
    Bit rate : 1 509 Kbps
    Channel(s) : 6 channels
    Channel positions : Front: L C R, Side: L R, LFE
    Sampling rate : 48.0 KHz
    Bit depth : 16 bits
    Compression mode : Lossy
    Stream size : 1.06 GiB (14%)
    Title : DTS 5.1
    Language : English
    Default : No
    Forced : No
    Text #1
    ID : 5
    Format : VobSub
    Muxing mode : zlib
    Codec ID : S_VOBSUB
    Codec ID/Info : The same subtitle format used on DVDs
    Language : Spanish
    Default : Yes
    Forced : No
    Text #2
    ID : 6
    Format : VobSub
    Muxing mode : zlib
    Codec ID : S_VOBSUB
    Codec ID/Info : The same subtitle format used on DVDs
    Language : Spanish
    Default : No
    Forced : No









    Buy Premium Account To Get High Speed Download
    http://lupaste.com/?v=23242
  • Otros posts que te van a interesar:

    0 Comentarios

    Cargando comentarios espera un momento...
    No tienes permisos para comentar.

    Para poder comentar necesitas estar Registrado. O.. ya tienes usuario? Logueate!