• The Hunger Games Mockingjay Part 2 [2015] 3D H-SBS 1080p [In
  • Creado 1510030878
  • Seguidores: 0
  • Favoritos: 0
  • Puntos: 0
  • Medallas: 1
  • Ver perfil de campitos
  • Destacado

  • Medallas



    Titulo original: The Hunger Games: Mockingjay. Part 2
    Ano: 2015
    Duracion: 137 min.
    Pais: Estados Unidos
    Director: Francis Lawrence
    Reparto: Jennifer Lawrence, Josh Hutcherson, Sam Claflin, Liam Hemsworth, Donald Sutherland, Julianne Moore, Natalie Dormer, Gwendoline Christie, Philip Seymour Hoffman, Robert Knepper, Stef Dawson, Elden Henson, Evan Ross, Mahershala Ali, Wes Chatham, Omid Abtahi
    Productora: Color Force / Lionsgate
    Genero: Ciencia ficcion. Aventuras | Thriller futurista. Supervivencia. Distopia. Secuela
    Sinopsis: La ultima entrega de Los juegos del hambre nos muestra a una nacion en guerra, en la que Katniss se enfrenta con unas y dientes al presidente Snow (Donald Sutherland). Con la ayuda de algunos amigos, entre ellos Gale (Liam Hemsworth), Finnick (Sam Claflin) y Peeta (Josh Hutcherson), arriesgara la vida para salir del Distrito 13 y eliminar al presidente Snow.
    http://www.imdb.com/title/tt1951266/?ref_=nv_sr_1
    Trailer
    https://youtu.be/kneytMkVEJo


    Cita:


    General
    Format : Matroska
    Format version : Version 4 / Version 2
    File size : 9.35 GiB
    Duration : 2h 17mn
    Overall bit rate : 9 720 Kbps
    Movie name : The Hunger Games Mockingjay Part 2 (2015) 3D H-SBS 1080p
    Encoded date : UTC 2016-03-23 17:26:00
    Writing application : mkvmerge v8.3.0 (Over the Horizon) 64bit
    Writing library : libebml v1.3.1 + libmatroska v1.4.2
    Video
    ID : 1
    Format : AVC
    Format/Info : Advanced Video Codec
    Format profile : High@L4.1
    MultiView_Count : 2
    MultiView_Layout : Side by Side (left eye first)
    Format settings, CABAC : Yes
    Format settings, ReFrames : 5 frames
    Codec ID : V_MPEG4/ISO/AVC
    Duration : 2h 17mn
    Bit rate : 8 597 Kbps
    Width : 1 920 pixels
    Height : 808 pixels
    Display aspect ratio : 2.40:1
    Frame rate mode : Constant
    Frame rate : 23.976 fps
    Color space : YUV
    Chroma subsampling : 4:2:0
    Bit depth : 8 bits
    Scan type : Progressive
    Bits/(Pixel*Frame) : 0.231
    Stream size : 7.94 GiB (85%)
    Title : The Hunger Games Mockingjay Part 2 (2015) 3D H-SBS 1080p
    Language : English
    Default : Yes
    Forced : No
    Audio #1
    ID : 2
    Format : AC-3
    Format/Info : Audio Coding 3
    Mode extension : CM (complete main)
    Format settings, Endianness : Big
    Codec ID : A_AC3
    Duration : 2h 17mn
    Bit rate mode : Constant
    Bit rate : 640 Kbps
    Channel(s) : 6 channels
    Channel positions : Front: L C R, Side: L R, LFE
    Sampling rate : 48.0 KHz
    Bit depth : 16 bits
    Compression mode : Lossy
    Delay relative to video : 12ms
    Stream size : 631 MiB (7%)
    Title : AC3 5.1
    Language : Spanish
    Default : Yes
    Forced : No
    Audio #2
    ID : 3
    Format : AC-3
    Format/Info : Audio Coding 3
    Mode extension : CM (complete main)
    Format settings, Endianness : Big
    Codec ID : A_AC3
    Duration : 2h 17mn
    Bit rate mode : Constant
    Bit rate : 640 Kbps
    Channel(s) : 6 channels
    Channel positions : Front: L C R, Side: L R, LFE
    Sampling rate : 48.0 KHz
    Bit depth : 16 bits
    Compression mode : Lossy
    Stream size : 631 MiB (7%)
    Title : AC3
    Language : English
    Default : No
    Forced : No
    Text #1
    ID : 4
    Format : UTF-8
    Codec ID : S_TEXT/UTF8
    Codec ID/Info : UTF-8 Plain Text
    Title : Subt_Forz
    Language : Spanish
    Default : Yes
    Forced : No
    Text #2
    ID : 5
    Format : UTF-8
    Codec ID : S_TEXT/UTF8
    Codec ID/Info : UTF-8 Plain Text
    Title : Subt_Complet
    Language : Spanish
    Default : No
    Forced : No









    Buy Premium Account To Get High Speed Download
    http://lupaste.com/?v=23528
  • Otros posts que te van a interesar:

    0 Comentarios

    Cargando comentarios espera un momento...
    No tienes permisos para comentar.

    Para poder comentar necesitas estar Registrado. O.. ya tienes usuario? Logueate!