• The Island [2005] FullHD 1080p [Ing-Lat]
  • Creado 1510034126
  • Seguidores: 0
  • Favoritos: 0
  • Puntos: 0
  • Medallas: 1
  • Ver perfil de campitos
  • Destacado

  • Medallas



    Titulo original: The Island
    Ano: 2005
    Duracion: 127 min.
    Pais: Estados Unidos
    Director: Michael Bay
    Reparto: Ewan McGregor, Scarlett Johansson, Djimon Hounsou, Sean Bean, Steve Buscemi, Michael Clarke Duncan, Ethan Phillips, Max Baker, Shawnee Smith, Brian Stepanek, Yvette Nicole Brown, Eric Stonestreet
    Productora: DreamWorks Pictures / Warner Bros. Pictures
    Genero: Ciencia ficcion. Thriller. Accion | Thriller futurista. Distopia
    Sinopsis: Ano 2019. Lincoln Seis-Echo y Jordan Dos-Delta se encuentran entre los cientos de residentes de una especie de campo de concentracion. Dentro de ese lugar cuidadosamente vigilado, su vida cotidiana, como la de los demas, esta rigurosamente controlada y llena de restricciones. La unica salida -y la esperanza que todos comparten- consiste en ser elegidos para ir a "La isla", el unico lugar del mundo que no ha sufrido los efectos contaminantes de un desastre ecologico que, al parecer, acabo con todos los hombres, excepto los habitantes de esa zona. Lincoln, que vive atormentado por pesadillas inexplicables, se siente cada vez mas inquieto, y su creciente curiosidad lo llevara a descubrir un terrible secreto.
    http://www.imdb.com/title/tt0399201
    Trailer
    https://youtu.be/_ZyNJ3cKfEg


    Cita:


    General
    Format : Matroska
    Format version : Version 4 / Version 2
    File size : 9.65 GiB
    Duration : 2 h 16 min
    Overall bit rate : 10.1 Mb/s
    Movie name : The Island (2005) 1080p
    Encoded date : UTC 2017-09-11 22:00:03
    Writing application : mkvmerge v15.0.0 (Duel with the Devil) 64-bit
    Writing library : libebml v1.3.5 + libmatroska v1.4.5
    Video
    ID : 1
    Format : AVC
    Format/Info : Advanced Video Codec
    Format profile : High@L4.1
    Format settings, CABAC : Yes
    Format settings, ReFrames : 4 frames
    Codec ID : V_MPEG4/ISO/AVC
    Duration : 2 h 16 min
    Bit rate : 8 000 kb/s
    Width : 1 920 pixels
    Height : 800 pixels
    Display aspect ratio : 2.40:1
    Frame rate mode : Constant
    Frame rate : 23.976 (24000/1001) FPS
    Color space : YUV
    Chroma subsampling : 4:2:0
    Bit depth : 8 bits
    Scan type : Progressive
    Bits/(Pixel*Frame) : 0.217
    Stream size : 7.60 GiB (79%)
    Title : The Island (2005) 1080p
    Writing library : x264 core 148 r2708 86b7198
    Language : English
    Default : Yes
    Forced : No
    Color range : Limited
    Color primaries : BT.709
    Transfer characteristics : BT.709
    Matrix coefficients : BT.709
    Audio #1
    ID : 2
    Format : AC-3
    Format/Info : Audio Coding 3
    Mode extension : CM (complete main)
    Format settings, Endianness : Big
    Codec ID : A_AC3
    Duration : 2 h 16 min
    Bit rate mode : Constant
    Bit rate : 640 kb/s
    Channel(s) : 6 channels
    Channel positions : Front: L C R, Side: L R, LFE
    Sampling rate : 48.0 kHz
    Frame rate : 31.250 FPS (1536 spf)
    Bit depth : 16 bits
    Compression mode : Lossy
    Stream size : 623 MiB (6%)
    Title : AC3 5.1 Bluray
    Language : Spanish
    Default : Yes
    Forced : No
    Audio #2
    ID : 3
    Format : DTS
    Format/Info : Digital Theater Systems
    Mode : 16
    Format settings, Endianness : Big
    Codec ID : A_DTS
    Duration : 2 h 16 min
    Bit rate mode : Constant
    Bit rate : 1 510 kb/s
    Channel(s) : 6 channels
    Channel positions : Front: L C R, Side: L R, LFE
    Sampling rate : 48.0 kHz
    Frame rate : 93.750 FPS (512 spf)
    Bit depth : 24 bits
    Compression mode : Lossy
    Stream size : 1.43 GiB (15%)
    Title : DTS
    Language : English
    Default : No
    Forced : No
    Text #1
    ID : 4
    Format : UTF-8
    Codec ID : S_TEXT/UTF8
    Codec ID/Info : UTF-8 Plain Text
    Duration : 1 s 417 ms
    Bit rate : 158 b/s
    Count of elements : 1
    Stream size : 28.0 Bytes (0%)
    Title : Subti_Forz
    Language : Spanish
    Default : Yes
    Forced : No
    Text #2
    ID : 5
    Format : UTF-8
    Codec ID : S_TEXT/UTF8
    Codec ID/Info : UTF-8 Plain Text
    Duration : 2 h 4 min
    Bit rate : 50 b/s
    Count of elements : 1397
    Stream size : 45.9 KiB (0%)
    Title : Subt_Complet
    Language : Spanish
    Default : No
    Forced : No









    Buy Premium Account To Get High Speed Download
    http://lupaste.com/?v=25124
  • Otros posts que te van a interesar:

    0 Comentarios

    Cargando comentarios espera un momento...
    No tienes permisos para comentar.

    Para poder comentar necesitas estar Registrado. O.. ya tienes usuario? Logueate!